Stage1st

 找回密码
 立即注册
搜索
查看: 23563|回复: 80

[专辑] 【百度云】古典传教—安塞美,皇家芭蕾(自抓)

[复制链接]
     
发表于 2013-10-7 21:45 | 显示全部楼层 |阅读模式
本帖最后由 jackyblade 于 2017-11-22 20:16 编辑

游客,如果您要查看本帖隐藏内容请回复
有很久没分享古典乐了,主要是很久没买新CD了,而且听了很多都是比较hardcore的,自己听下去都艰涩晦暗。但这次入了一张DECCA的名盘,安塞美的皇家芭蕾,虽然是2CD的套装,但是第一张CD的内容就让我听得起了鸡皮疙瘩——简直是太好听了。以前一直以为演绎老柴那种俄罗斯风格的必定是有东欧背景的大师最够味道,譬如斯特拉文斯基、斯托科夫斯基等等,后者的《白头佬狂想曲》一直就是我非常喜欢的一张CD,他演绎的老柴选段已经达到了我心目中“完美”那个档次。不过安塞美这个瑞士人居然能把老柴的芭蕾舞区演绎到如此的高度,真是让人始料未及。之前我对此人并不太熟悉,听了这张惊艳的cd之后放狗搜了下,发现此人演绎的芭蕾舞曲就是毫无争议的no。1

所以毫不犹豫的抓了轨分享上来,这么优美的曲调,这么动人的演奏,我想一定会打动大家的心灵。下面把cue也粘上来,wav文件放百度云里面,回复可见。


REM GENRE Classical
REM DATE 1998
REM DISCID D50B390F
REM COMMENT "ExactAudioCopy v1.0b2"
PERFORMER "Ernest Ansermet"
TITLE "The Royal Ballet CD 1 - Classic RCA 24kt Gold 1998"
FILE "Ernest Ansermet - The Royal Ballet CD 1 - Classic RCA 24kt Gold 1998.wav" WAVE
  TRACK 01 AUDIO
    TITLE "Tchaikovsky - Nutcracker Suite Op. 71a Excerpts - March"
    PERFORMER "Ernest Ansermet"
    INDEX 01 00:00:00
  TRACK 02 AUDIO
    TITLE "Tchaikovsky - Nutcracker Suite Op. 71a Excerpts - Dance of the Sugar Plum Fairy"
    PERFORMER "Ernest Ansermet"
    INDEX 01 02:32:61
  TRACK 03 AUDIO
    TITLE "Tchaikovsky - Nutcracker Suite Op. 71a Excerpts - Arabian Dance"
    PERFORMER "Ernest Ansermet"
    INDEX 01 04:18:57
  TRACK 04 AUDIO
    TITLE "Tchaikovsky - Nutcracker Suite Op. 71a Excerpts - Chinese Dance"
    PERFORMER "Ernest Ansermet"
    INDEX 01 07:55:42
  TRACK 05 AUDIO
    TITLE "Tchaikovsky - Nutcracker Suite Op. 71a Excerpts - Dance of the Toy Flutes"
    PERFORMER "Ernest Ansermet"
    INDEX 00 09:03:34
    INDEX 01 09:04:17
  TRACK 06 AUDIO
    TITLE "Tchaikovsky - Nutcracker Suite Op. 71a Excerpts - Waltz of the Flowers"
    PERFORMER "Ernest Ansermet"
    INDEX 00 11:23:34
    INDEX 01 11:24:22
  TRACK 07 AUDIO
    TITLE "Rossini - La Boutique Fantasque - Tarantella"
    PERFORMER "Ernest Ansermet"
    INDEX 00 18:00:14
    INDEX 01 18:02:64
  TRACK 08 AUDIO
    TITLE "Rossini - La Boutique Fantasque - Andante Mosso"
    PERFORMER "Ernest Ansermet"
    INDEX 00 20:10:22
    INDEX 01 20:10:70
  TRACK 09 AUDIO
    TITLE "Rossini - La Boutique Fantasque - Can-Can"
    PERFORMER "Ernest Ansermet"
    INDEX 00 22:49:54
    INDEX 01 22:50:67
  TRACK 10 AUDIO
    TITLE "Delibes - Coppelia Excerpts Act I - Prelude and Mazurka"
    PERFORMER "Ernest Ansermet"
    INDEX 00 24:52:34
    INDEX 01 24:56:64
  TRACK 11 AUDIO
    TITLE "Delibes - Coppelia Excerpts Act I - I**oduction and Waltz"
    PERFORMER "Ernest Ansermet"
    INDEX 00 29:18:04
    INDEX 01 29:18:65
  TRACK 12 AUDIO
    TITLE "Delibes - Coppelia Excerpts Act I - Czardas (Danse Hongroise)"
    PERFORMER "Ernest Ansermet"
    INDEX 01 32:17:45
  TRACK 13 AUDIO
    TITLE "Delibes - Coppelia Excerpts Act II - Valse de la Poupee"
    PERFORMER "Ernest Ansermet"
    INDEX 00 36:00:28
    INDEX 01 36:00:30
  TRACK 14 AUDIO
    TITLE "Adam - Giselle Excerpts Act I - I**oduction and Waltz"
    PERFORMER "Ernest Ansermet"
    INDEX 00 38:01:62
    INDEX 01 38:06:02
  TRACK 15 AUDIO
    TITLE "Adam - Giselle Excerpts Act II - Pas de Deux and Variation"
    PERFORMER "Ernest Ansermet"
    INDEX 00 43:10:20
    INDEX 01 43:11:52



Ernest Ansermet - The Royal Ballet CD 1 - Classic RCA 24kt Gold 1998.cue (2.63 KB, 下载次数: 0)
回复

使用道具 举报

发表于 2013-10-9 09:43 | 显示全部楼层
又见楼主
十分感谢
回复

使用道具 举报

发表于 2013-10-10 00:01 | 显示全部楼层
听听芭蕾的。感谢分享
回复

使用道具 举报

     
发表于 2013-10-10 12:57 | 显示全部楼层
谢谢大大发片
回复

使用道具 举报

     
发表于 2013-10-10 19:33 | 显示全部楼层
感谢大大发片
回复

使用道具 举报

     
发表于 2013-10-28 23:03 | 显示全部楼层
谢大大发片,收下了
回复

使用道具 举报

     
发表于 2013-10-30 20:31 来自手机 | 显示全部楼层
谢谢大大发片,好久不见楼主分享了
回复

使用道具 举报

头像被屏蔽
发表于 2013-10-30 21:07 | 显示全部楼层
感谢分享!
回复

使用道具 举报

     
发表于 2013-11-14 21:50 | 显示全部楼层
谢分享
回复

使用道具 举报

     
发表于 2013-11-22 22:37 | 显示全部楼层
谢分享!
回复

使用道具 举报

     
发表于 2013-12-15 00:00 | 显示全部楼层
多谢发片
回复

使用道具 举报

发表于 2013-12-17 17:34 | 显示全部楼层
作业BGM合适吗
回复

使用道具 举报

     
发表于 2013-12-17 23:57 | 显示全部楼层
感谢分享
回复

使用道具 举报

     
发表于 2013-12-18 07:05 | 显示全部楼层
感谢分享
回复

使用道具 举报

发表于 2013-12-18 14:37 | 显示全部楼层
感谢分享/
回复

使用道具 举报

发表于 2013-12-19 14:28 | 显示全部楼层
谢大大发片
回复

使用道具 举报

发表于 2014-1-11 20:16 | 显示全部楼层
謝大大發片
回复

使用道具 举报

     
发表于 2014-1-12 10:13 | 显示全部楼层
感谢大大发片
回复

使用道具 举报

发表于 2014-1-14 21:17 | 显示全部楼层
看起来挺棒,下来听听看
回复

使用道具 举报

发表于 2014-1-19 11:48 | 显示全部楼层

多谢发片
回复

使用道具 举报

头像被屏蔽
     
发表于 2014-1-22 00:24 | 显示全部楼层
感谢分享
回复

使用道具 举报

发表于 2014-2-9 14:02 | 显示全部楼层
感谢分享
回复

使用道具 举报

     
发表于 2014-2-20 03:50 | 显示全部楼层

感谢分享
回复

使用道具 举报

     
发表于 2014-3-1 17:22 | 显示全部楼层
谢大大发片!
回复

使用道具 举报

     
发表于 2014-3-2 19:10 | 显示全部楼层
大大快普及更多
回复

使用道具 举报

     
发表于 2014-3-3 08:36 | 显示全部楼层
看到楼主就进来了,之前推荐的几张碟都很不错
回复

使用道具 举报

     
发表于 2014-3-3 21:45 | 显示全部楼层
谢分享~
回复

使用道具 举报

     
发表于 2014-3-4 23:20 | 显示全部楼层
感謝大大分享~
回复

使用道具 举报

发表于 2014-3-5 01:13 | 显示全部楼层
十分感谢分享
回复

使用道具 举报

头像被屏蔽
     
发表于 2014-8-23 20:36 | 显示全部楼层
感谢楼主发布音乐
回复

使用道具 举报

您需要登录后才可以回帖 登录 | 立即注册

本版积分规则

小黑屋|手机版|Archiver|stage1st ( 沪ICP备130202305 沪公网安备 31010702004909号 )

GMT+8, 2020-2-24 22:52 , Processed in 0.044453 second(s), 10 queries , Gzip On, MemCache On.

Powered by Discuz! X3.4

© 2001-2017 Comsenz Inc.

快速回复 返回顶部 返回列表