Stage1st

 找回密码
 立即注册
搜索
查看: 2808|回复: 24

[电影] 想重温《大决战》三部曲

[复制链接]
     
发表于 2021-1-26 17:58 | 显示全部楼层 |阅读模式
心血来潮想重温《大决战》三部曲,但是百度了一下没找到在线观看,几个BT种子一直没速度,大家有啥好建议吗?
回复

使用道具 举报

     
发表于 2021-1-26 18:02 | 显示全部楼层
学习强国->学习电视台->影视频道->电影
回复

使用道具 举报

     
发表于 2021-1-26 18:06 来自手机 | 显示全部楼层
Kaltsit 发表于 2021-1-26 18:02
学习强国->学习电视台->影视频道->电影

没弹幕,有趣程度降低太多了

当年在b站陪着弹幕看笑出了3块腹肌
回复

使用道具 举报

     
 楼主| 发表于 2021-1-26 18:06 | 显示全部楼层
Kaltsit 发表于 2021-1-26 18:02
学习强国->学习电视台->影视频道->电影

学习强国是盲点,太感谢啦
回复

使用道具 举报

     
发表于 2021-1-26 18:39 | 显示全部楼层
最好找个带正确台词字幕的版本收藏了。

当年的公映版是没有字幕的,后加的字幕闹了不少笑话。

什么反焊接集团之类的。
回复

使用道具 举报

     
发表于 2021-1-26 19:07 来自手机 | 显示全部楼层
又dvd压制版,还有后来央视数码修复版
当然,弹幕是都没了,在下架之前,b站就把弹幕池清空了,也没人存下来,也没办法扒

—— 来自 HUAWEI PCT-AL10, Android 10上的 S1Next-鹅版 v2.4.4.1
回复

使用道具 举报

     
发表于 2021-1-27 00:18 来自手机 | 显示全部楼层
说起来大决战,当年SC是不是有个大决战QQ群聊天记录来着,挺欢乐的。
回复

使用道具 举报

     
发表于 2021-1-27 07:27 来自手机 | 显示全部楼层
b站大决战没了???
回复

使用道具 举报

     
发表于 2021-1-27 08:46 | 显示全部楼层
如果可以的话还是买当年大圣出品的DVD吧,虽说画质有些问题,但好歹还是完整版,最新的修复版听说是有删减的。
回复

使用道具 举报

     
发表于 2021-1-27 09:19 | 显示全部楼层
nanoka1021 发表于 2021-1-27 08:46
如果可以的话还是买当年大圣出品的DVD吧,虽说画质有些问题,但好歹还是完整版,最新的修复版听说是有删减 ...

央视的修复版其实有些偷工减料,比如说林司令军团万炮齐发炸锦州的时候,DVD版里出现了明显的画面损坏,而这一小段损坏的画面,央视在进行高清修复的时候基本就没管,高清化了以后仍然是损坏的。
回复

使用道具 举报

     
发表于 2021-1-27 11:23 | 显示全部楼层
当初B站上还有大决战字幕修订版,后来就只有决战之后,现在都没有了,只剩下学渣对题了
回复

使用道具 举报

     
发表于 2021-1-27 21:50 | 显示全部楼层
如此神作b站居然没买下来~
回复

使用道具 举报

     
发表于 2021-1-28 15:25 | 显示全部楼层
链接:https://pan.baidu.com/s/1fM9zC-TwXt02eoH5wq8BCQ
提取码:7rn5

16年还是啥时候泥潭网友发的 正好存了一份

评分

参与人数 1战斗力 +1 收起 理由
哥斯拉58 + 1 好评加鹅

查看全部评分

回复

使用道具 举报

头像被屏蔽
     
发表于 2021-1-28 16:23 | 显示全部楼层
提示: 作者被禁止或删除 内容自动屏蔽
回复

使用道具 举报

     
发表于 2021-1-28 22:22 | 显示全部楼层
我有央视数码修复版,带CCTV6台标,电影频道logo和“高清”水印,还有中间插播的广告,因此网上下的字幕时间轴对不上。试过用ffmpeg去掉广告片段,用精确定位法会造成重编码,用关键帧则会出错,在第一段结束的地方出现花屏。
最后是自制了章节信息把广告单列出来并粗略调了下字幕时间轴。只做了第一部就懒得弄了,如果有人想要这个版本的话,这个周末我把后两部处理完发上来。
[大决战1辽沈战役].CCTV6HD.Liao.Shen.Zhan.Yi.1990.720p.HDTV.x264-CMCTV.mkv_thumbs.jpg

General
Unique ID                   : 11692823423441599790079329899313244805 (0x8CBF4B45394D0074908F14B6C9A2A85)
Complete name               : C:\大决战\[大决战1辽沈战役].CCTV6HD.Liao.Shen.Zhan.Yi.1990.720p.HDTV.x264-CMCTV.mkv
Format                      : Matroska
Format version              : Version 4
File size                   : 8.18 GiB
Duration                    : 3 h 35 min
Overall bit rate            : 5 450 kb/s
Encoded date                :
Writing application         : mkvmerge v45.0.0 ('Heaven in Pennies') 64-bit
Writing library             : libebml v1.3.10 + libmatroska v1.5.2

Video
ID                          : 1
Format                      : AVC
Format/Info                 : Advanced Video Codec
Format profile              : High@L4.1
Format settings             : CABAC / 4 Ref Frames
Format settings, CABAC      : Yes
Format settings, Reference  : 4 frames
Codec ID                    : V_MPEG4/ISO/AVC
Duration                    : 3 h 35 min
Bit rate                    : 5 000 kb/s
Width                       : 1 280 pixels
Height                      : 720 pixels
Display aspect ratio        : 16:9
Frame rate mode             : Constant
Frame rate                  : 25.000 FPS
Color space                 : YUV
Chroma subsampling          : 4:2:0
Bit depth                   : 8 bits
Scan type                   : Progressive
Bits/(Pixel*Frame)          : 0.217
Stream size                 : 7.51 GiB (92%)
Writing library             : x264 core 120 r2164 da19765
Encoding settings           : cabac=1 / ref=3 / deblock=1:0:0 / analyse=0x3:0x113 / me=hex / subme=7 / psy=1 / psy_rd=1.00:0.00 / mixed_ref=1 / me_range=16 / chroma_me=1 / trellis=1 / 8x8dct=1 / cqm=0 / deadzone=21,11 / fast_pskip=1 / chroma_qp_offset=-2 / threads=6 / sliced_threads=0 / nr=0 / decimate=1 / interlaced=0 / bluray_compat=0 / constrained_intra=0 / bframes=3 / b_pyramid=2 / b_adapt=1 / b_bias=0 / direct=1 / weightb=1 / open_gop=0 / weightp=2 / keyint=250 / keyint_min=25 / scenecut=40 / intra_refresh=0 / rc_lookahead=40 / rc=2pass / mbtree=1 / bitrate=5000 / ratetol=1.0 / qcomp=0.60 / qpmin=0 / qpmax=69 / qpstep=4 / cplxblur=20.0 / qblur=0.5 / ip_ratio=1.40 / aq=1:1.00
Default                     : Yes
Forced                      : No

Audio
ID                          : 2
Format                      : AC-3
Format/Info                 : Audio Coding 3
Commercial name             : Dolby Digital
Codec ID                    : A_AC3
Duration                    : 3 h 35 min
Bit rate mode               : Constant
Bit rate                    : 448 kb/s
Channel(s)                  : 2 channels
Channel layout              : L R
Sampling rate               : 48.0 kHz
Frame rate                  : 31.250 FPS (1536 SPF)
Compression mode            : Lossy
Stream size                 : 689 MiB (8%)
Service kind                : Complete Main
Default                     : Yes
Forced                      : No

Menu
00:00:00.000                : zh:第 01 章
01:18:14.455                : zh:广告
01:22:19.665                : zh:第 02章
01:57:11.400                : zh:广告
01:57:46.680                : zh:第 03 章
02:51:39.810                : zh:广告
02:53:30.266                : zh:第 04 章




回复

使用道具 举报

     
发表于 2021-1-30 21:26 | 显示全部楼层
本帖最后由 downforce 于 2021-1-30 21:34 编辑
nanoka1021 发表于 2021-1-27 08:46
如果可以的话还是买当年大圣出品的DVD吧,虽说画质有些问题,但好歹还是完整版,最新的修复版听说是有删减 ...

照着央视修复版调字幕时间轴,被删掉的台词不超过10句。主要是第一部的“缴枪不缴女人”被删掉了,说实话每次看到这段都觉得有点莫名其妙的。但还有个突兀的地方,抢救女人那段没删,导致前一段女通讯兵们还在联络通信,镜头一切就全躺地上了,怎么中弹的没有交代被删了。而且撕背上衣服那一幕也没删。
第三部调整了一些镜头的顺序。这个应该是原版剪辑错了。
修复版是杨成武包围张家口→敌35军出动去解张家口的围→得知东野打密云敌35军往回撤突破12旅两道防线→华北第2兵团没有及时赶到切断敌人退路→主 席发脾气站在雪地里不回屋→杨得志收到主 席生气了的电报急行军→12旅阻击敌35军坚持1天2夜等到主力赶到→敌35军被困新保安。
原版是是杨得志收到主 席生气了的电报急行军→12旅阻击敌35军坚持1天2夜等到主力赶到→杨成武包围张家口→敌35军出动去解围张家口→得知东野打密云敌35军往回撤突破12旅两道防线→华北第2兵团没有及时赶到切断敌人退路→主 席发脾气站在雪地里不回屋→敌35军被困新保安。
回复

使用道具 举报

     
发表于 2021-1-31 07:37 | 显示全部楼层
链接:https://pan.baidu.com/s/11UU_MqA2HWBfQ-z8ju3h6g
提取码:n0ck
央视数码修复版720p,带台标水印,内挂字幕(大致对了下时间轴,不知道字幕来源,感谢原作者)。不想重编码所以没有裁掉中插广告,而是用mkv的章节信息把广告部分跳过了。如果用不支持mkv章节信息的播放器看还是能看到广告。
回复

使用道具 举报

     
发表于 2021-2-2 09:19 | 显示全部楼层
央视那个没有1080P吗,720P有点不够。

b战连大决战都删除了实在是太可惜了,大决战里面弹幕实际上完全没有任何问题,之前我经常有兴趣就重头看一遍
回复

使用道具 举报

     
发表于 2021-2-2 15:50 | 显示全部楼层
大决战的弹幕是分阶段的。早期那铺天盖地的果粉,后面才到对果粉的围追堵截阶段。前阵子下的弹幕存档都还有部分果粉弹幕
回复

使用道具 举报

     
发表于 2021-2-3 15:55 来自手机 | 显示全部楼层
淮海战役开头旁白“要将徐州(?)变成 常凯申的滑铁卢”,弹幕一堆“乳拿皇了”xswl

大决战还有**的题字,明明白白写着,膜的也挺多的。
回复

使用道具 举报

     
发表于 2021-2-20 15:02 | 显示全部楼层
链接:https://pan.baidu.com/s/1_n-n5oRV11WinjE3ET5ZBg
提取码:love
央六版,有广告
回复

使用道具 举报

     
发表于 2021-2-22 11:43 | 显示全部楼层
柳柳昭陵 发表于 2021-2-2 15:50
大决战的弹幕是分阶段的。早期那铺天盖地的果粉,后面才到对果粉的围追堵截阶段。前阵子下的弹幕存档都还有 ...

大佬能否分享一下弹幕存档或者指个路到哪里能下载到弹幕存档?
最近想重温一些看过多次的老电影,有弹幕还多些乐趣,可惜弹幕资源太少了。
回复

使用道具 举报

     
发表于 2021-2-22 12:29 | 显示全部楼层
TimDOK 发表于 2021-2-22 11:43
大佬能否分享一下弹幕存档或者指个路到哪里能下载到弹幕存档?
最近想重温一些看过多次的老电影,有弹幕 ...

链接:https://pan.baidu.com/s/1uIvL-DXLaQTb84HblWicyA
提取码:0r8k
没有平津的
回复

使用道具 举报

     
发表于 2021-2-22 12:51 | 显示全部楼层
柳柳昭陵 发表于 2021-2-22 12:29
链接:https://pan.baidu.com/s/1uIvL-DXLaQTb84HblWicyA
提取码:0r8k
没有平津的

弹幕盒子里面有被人转成ass的平津弹幕
回复

使用道具 举报

     
发表于 2021-2-22 13:35 | 显示全部楼层
鲁邦三世1 发表于 2021-2-22 12:51
弹幕盒子里面有被人转成ass的平津弹幕

谢谢!
回复

使用道具 举报

您需要登录后才可以回帖 登录 | 立即注册

本版积分规则

小黑屋|Archiver|上海互联网违法和不良信息举报中心|网上有害信息举报专区|962110 反电信诈骗|举报电话 021-62035905|stage1st ( 沪ICP备13020230号-1 沪公网安备 31010702004909号 )

GMT+8, 2021-2-27 09:31 , Processed in 0.064325 second(s), 10 queries , Gzip On, MemCache On.

Powered by Discuz! X3.4

© 2001-2017 Comsenz Inc.

快速回复 返回顶部 返回列表